#TITLE:Days of Sodom By young_editer@hotmail.com;
#ARTIST:Dismal Euphony;
#FILE:Dismal Euphony (Days of Sodom).mp3;
#BPM:147.960;
#GAP:-40;
#SAMPLESTART:99.740;
#SAMPLELENGTH:12.000;
#CDTITLE:Nepex-Chart.bmp;
#CHANGEBPM:1088.000=86.000,1092.000=172.000,1864.000=147.960,2372.000=171.920,3280.000=42.980;
#SINGLE:MANIAC:13:
[000000000000000028B03090]
`1!100000000000000000000000000000000000000000000200A!A00000000000000000000000000000000000000000000000000000000000000000000000000000006000000060000000<19>00000000000000030000000000000009000000000000000'
(7!8000928268208240)
9!991!11A!AA7!77
[3!3003001!1001003!300300B!B00B3!30]
{7!7000000070000002<6A!A>0000000A00000001!10000000100000003!3000000030000000}
9!99A!AAB!BB3!33
[7!7007A0309010A!A000<19>07030A0]
[3!300300A!A00A00B!B00B001!10019!90]
{1!1000000010000008<67!7>0000000700000003!30000000300000009!9000000090000000}
B!BB1!11A!AA7!77
[1!1001209!900900A!A00A207!706700]
[6!600020<94!4>060007!800040<92!2>08000]
[1!400060<18!8>040009!600080<B8!8>02000]
[7!400080<B2!2>040003!600080<B8!8>06000]
[A!200060<18!8>040309!600040<38!8>020B0]
`9!6000000000000000000000000000000040000000000006009!8000000000000000200000000000000000000000000000009!600000000000000000000000000000008000000000000000<94!4>00000000000000020000000000000000000000000000000'
[1!200040<18!8>06000A!200040<38!8>02000]
[9!600040<94!4>060001!200060<18!8>02000]
`A!200000000000000000000000000000004000000000000000<A6!6>00000000000000020000000000000000000000000000000B!4000000000000000000000000000000080000000000004007!80000000000000002000000000000000B000000000000000'
[A!200040<38!8>020007!400020<18!8>02000]
[7!400020<B8!8>02000A!200060<18!8>02000]
[9!600040<38!8>040007!400080<B8!8>02000]
`A!200000000000000000000000000000006000000000000000<18!8>0000000000000002000000000000000B000000000000000A!200000000000000000000000000000004000000000000200A!800000000000000060000000000000001000000000000000'
[7!400060<18!8>040009!600080<B8!8>02000]
[9!600040<92!2>060001!400080<B8!8>04000]
[9!600080<B8!8>040007!400020<B8!8>06000]
[700060802080400080400020]
[902090409090909090904090]
[902090909090904090909090]
[909090902090904090909090]
[9040A040A060A040A0601010]
[106010101010108010101010]
[101010108010106010108010]
[106010101010108010106010]
[108020804020802080602040]
[A!A06040<19>020B0402060108010]
[3!3083209!904920B!B08B60A!A04A20]
[7!7067203!3083209!9049201!108120]
[7!706720A!A04A201!1081207!706720]
[B!B08B403!3083209!904920A!A06A20]
[B!B08B207!7067203!304320B!B02B40]
[A!A06A409!9029601!1081607!702780]
[B!B02B809!9049201!106140A!A06A20]
[9!9049201!1061207!7067403!308340]
[B!B08B603!3043809!9049601!108140]
[A!A06A20B!B08B601!1081409!902960]
[A!A04A601!1081609!902940A!A06A20]
[1!1061409!902940A!A06A40B!B08B60]
[1!1061207!7067403!3083409!902940]
[A!A06A201!1081209!904920B!B08B20]
[A!A00A60408020804020602080]
`1!100000000000000000000000000000009000000000000400<61>000000000000000A000000000000000A000000000000000A00000000000000000000000000000009000000000000000700000000000000010000000000000001000000000000000'
[1000A0B0303030001030A010]
[B!B000<19>090A070B!B000<19>010A030]
`7!70000000000000000000000000000070A000000000000000600000000000000070000000000000002000000000000000600000000000000080000000000000002000000000000000800000000000000060000000000000002000000000000000'
`7!700000000000000000000000000000003000000000000400<83>000000000000000B000000000000000B000000000000000B00000000000000000000000000000001000000000000000300000000000000070000000000000007000000000000000'
[7000A010909090003090A0B0]
`9!90000000000000000000000000000000<19>000000000000000B000000000000000A00000000000000030000000000000007!700000000000000000000000000000702000000000000000B0000000000000003000000000000000A!2000000000000000'
[<2B!B>000<19>0803040206080602080]
`1!100000000000000000000000000000009000000000000400<61>000000000000000300000000000000030000000000000003000000000000000000000000000000030000000000000009000000000000000A000000000000000A000000000000000'
[A00030A0707070003070A0B0]
[9!9000<19>0B070307!7000<19>01070A0]
[7!7000<19>040A060208040208020]
`3!300000000000000000000000000000007000000000000600<61>000000000000000900000000000000090000000000000009000000000000000000000000000000030000000000000007000000000000000A000000000000000A000000000000000'
[A0007030101010009010A0B0]
`7!70000000000000000000000000000000<19>000000000000000B0000000000000003000000000000000A0000000000000007!70000000000000000000000000000070A00000000000000010000000000000009000000000000000A000000000000000'
[7!7060<81>0602040602060408020]
B!B0B08!807!46
<18!8>0A!201!40<16!6>0
9!80A!26<18!8>07!40
7!82<76!6>0B!401!24
<38!8>07!407!80<A6!6>0
B!40B!64<38!8>07!40
[7!800072B!600200B!400000B!600400]
<92!2>03!609!80<76!6>0
3!203!62<B8!8>07!40
1!24<A6!6>0B!407!86
<72!2>03!60B!40<16!6>0
[B!4000001!200000<38!8>00062<76!6>00200]
{900000004000000020400000600000001!10000000900000009000000090000004}
<81>AAAAA37
7777A999
{9000000090000000A000000070000000B!B0000000A0000000A0000000A000000B}
71111139
9999B111
{1000000010000000A0000000700000003!30000000700000007000000070000006}
<83>BBBBB3A
AAAAB777
{700000007000000030000000A00000007!70000000300000003000000030000004}
<8B>9999971
{9!90000000100000001000000010000006<8B>000000000000000B!B000000020000000}
8282<BA!A>4!4B!66
<19>08!8A!23!6B!4<B8!8>A!2
3!63!2A!88108!87!4
1!2A!8<A6!6>9!8A!2A!87!44
304!4B!63!2A!8<76!6>3!2
<2B!B>02!2<19!8><76!6>9!8<8B!B>0
2!2<19!8><92!2>A!8<83!3>4!47!8<83>
902!23!6B!47!8<72!2>3!6
B!47!8A!22A08!87!4
7!8A!2<16!6>3!2<2B!B>8!8<BA!2>2
708!87!4B!63!2<A6!6>9!8
<81!1>0<18!8>9!6<B2!2>A!8<1!19!6>2
(8!80<BA!2>0<A6!6>03!201!48168242)
(8246282842824286)
(2826828248242826)
(8286282682428682)
(8628282842828268)
(2862828424248284)
(6282682862828428)
(6282682862842828)
(4282824828284282)
(8628268286284282)
(8424248262426242)
(6242828486848684)
`8000000000006000000000008000000000004000000000002000000000008000000000002000000000008000000000006!600000000000000000000000000000002000000000000000<94!4>00000000000000060000000000000000000000000000000'
[7!800040<92!2>080001!400060<18!8>04000]
[9!600080<B8!8>020007!400080<B2!2>04000]
[3!600080<B8!8>06000A!200060<18!8>020B0]
`9!600000000000000000000000000000004000000000000000<38!8>000000000000000600000000000000010000000000000009!6000000000000000000000000000000040000000000006009!800000000000000020000000000000000000000000000000'
[9!600080<94!4>020001!200040<18!8>06000]
[A!200040<38!8>020009!600040<94!4>06000]
[1!200060<18!8>02000A!200040<A6!6>02000]
`B!4000000000000000000000000000000080000000000004007!80000000000000002000000000000000B000000000000000A!200000000000000000000000000000004000000000000000<38!8>00000000000000020000000000000000000000000000000'
[7!400020<18!8>020007!400020<B8!8>02000]
[A!200060<18!8>020009!600040<38!8>04000]
[7!400080<B8!8>02000A!200060<18!8>020B0]
`A!200000000000000000000000000000004000000000000200A!8000000000000000600000000000000010000000000000007!400000000000000000000000000000006000000000000000<18!8>00000000000000040000000000000000000000000000000'
[9!600080<B8!8>020009!600040<92!2>06000]
[1!400080<B8!8>040009!600080<B8!8>04000]
[7!400020<B8!8>06000700080206080]
[200040208060B00090B09000]
[1000A070909090007010A0A0]
[A00070307000A!A000B0<19>0B000]
[1!100090<19>090003!300070<61>02080]
[6080204020803!300070<19>07000]
[1!100090<19>090009!900010<19>01000]
[700030B030007!700030<19>03000]
[B!B000A0<19>0A000A!A000B0<19>0B000]
[300070B07000A!A000B0<19>0B000]
[1!100090<19>090003!300070<19>07000]
[9000A0B0A0009!900010<19>01000]
[1!100090<19>0A0A0A!A000B0<19>02080]
[608020402060A!A000B0<19>0B000]
[3!300070<19>070007!700030<19>03000]
[B00070A070007!700030<19>03000]
[B!B000A0<19>0A0009!900010<19>01000]
`B000000000000000000000000000000000004000000000002!20000000000000000000000000000000A!8000000000000000<8B!B>000000000000000000000000000000000000000000000008!800000000000000000000000000000000000000000000B00'
`<92!2>0000000000000000000000000000000A!8000000000000000A!200000000000000000000000000000000000000000000000<18!8>00000000000600000000000400000000000600000000000<72!2>0000000000000000000000000000000A!8000000000000000'
`A!20000000000000000000000000000000A!8000000000000000<72!2>00000000000600000000000400000000000600000000000<18!8>0000000000000000000000000000000<72!2>000000000000000A!80000000000000000000000000000000A!2000000000000000'
<29!9>024<83>47!70
<8B>2829!90<8B>6
281!10<61>824
3!3084<83>2B!B0
<8B>4687!70<8B>4
{80000000200000003!300000000000000630008000200040002000800060008000}
1!10<81>618B!B0
<61>8343!30<83>4
(A0607!7000<8B>282B020)
3!30<83>2B8A!A0
<83>2943!30<61>8
B21!10<61>84!40
(1826824282462828)
(4282428628268282)
(4824282682862826)
(8242868286282828)
(4282826828628284)
(2424828462826828)
(6282842862826828)
(6284282842828248)
(2828428286282682)
(8628428284242482)
(6242624262428284)
(8684868486842828)
(6428286282682862)
(8284282824282828)
(6282842824828428)
(2842828284282686)
(2828428628268246)
(8242868242868242)
(8628242826828628)
(4262426246284628)
(2682426242624286)
(8286824286848684)
(8684868486848684)
(8648268628284282)
(8628268628284282)
(4828284282424242)
(4242424626262626)
(2628284282428242)
(8286828286828628)
(2842828628284282)
(4282862826828268)
(6282868286828284)
(2424828428628268)
(2862826868686282)
(8424828428484848)
(2842828628268286)
(4646482828284628)
(2682862828424248)
(2846282686282826)
(8286824286824286)
(8242868242868242)
(8682B!B0B03!30307!7070)
B!B0000000
00000000
B0000000
;
